Terror/Miedo 12 horas para sobrevivir: El inicio [2018] [Latino] [1080p] [Un link] [UB-1F+]

Tema en 'Películas Gratis' iniciado por EmaMedina, 11 de Octubre de 2018 a las 9:53 AM.

  1. EmaMedina

    EmaMedina Fiuxer Confiable Cuenta verificada

    [​IMG]

    [​IMG]

    Para mantener durante el resto del año la tasa de criminalidad por debajo del 1%, los Nuevos Padres Fundadores de América ponen a prueba una teoría sociológica que da rienda suelta a todo tipo de agresiones durante una noche en una comunidad aislada. Pero cuando la violencia de los opresores se encuentra con la ira de los marginados, el vandalismo explota más allá de esas fronteras “experimentales” para extenderse por todo el país. Detrás de cada tradición hay una revolución. Descubre cómo toda una nación entera abrazó una brutal celebración anual: 12 horas de impunidad criminal. Bienvenidos a un movimiento que comenzó como un simple experimento.

    [​IMG]



    [​IMG]

    Título original: The First Purge
    Año: 2018
    Duración: 97 min.
    País: Estados Unidos Estados Unidos
    Dirección: Gerard McMurray
    Guion: James DeMonaco
    Música: Kevin Lax
    Fotografía: Anastas N. Michos
    Reparto: Y'lan Noel, Lex Scott Davis, Joivan Wade, Lauren Vélez, Marisa Tomei, Melonie Diaz, Mo McRae, Steve Harris, Chyna Layne, Patch Darragh, Aaron V. Williamson, Qurrat Ann Kadwani, David Breda, Jessica Bell, Jermel Howard, Maria Rivera, Katina Forte, Christian Robinson, Katherine Fudge, Allen Wall, Christopher Fortin, Mugga, Robert Bozek, Justin Clarke, Rotimi Paul, Geoff Schuppert, Cloé Xhauflaire, John P. McGinty, Caitlyn Stephenson, Brandyn T. Williams, Peter Johnson, Gabriel Robere, Eric Witkowski
    Productora: Blumhouse Productions / Platinum Dunes. Distribuida por Universal Pictures
    Género: Thriller. Terror. Acción | Distopía. Thriller futurista. Crimen. Precuela

    [​IMG]

    General
    Unique ID : 210647368860827621069389099953623982133 (0x9E7935214FC6F583BF7C862648F4E035)
    Complete name : The.First.Purge.1080P.Latino.mkv
    Format : Matroska
    Format version : Version 4 / Version 2
    File size : 3.32 GiB
    Duration : 1 h 37 min
    Overall bit rate : 4 876 kb/s
    Encoded date : UTC 2018-09-18 08:26:37
    Writing application : mkvmerge v6.4.1 ('Omega Point') built on Sep 16 2013 22:05:10
    Writing library : libebml v1.3.0 + libmatroska v1.4.1

    Video
    ID : 1
    Format : AVC
    Format/Info : Advanced Video Codec
    Format profile : [email protected]
    Format settings : CABAC / 5 Ref Frames
    Format settings, CABAC : Yes
    Format settings, RefFrames : 5 frames
    Codec ID : V_MPEG4/ISO/AVC
    Duration : 1 h 37 min
    Bit rate : 4 523 kb/s
    Width : 1 920 pixels
    Height : 802 pixels
    Display aspect ratio : 2.40:1
    Frame rate mode : Constant
    Frame rate : 23.976 (24000/1001) FPS
    Color space : YUV
    Chroma subsampling : 4:2:0
    Bit depth : 8 bits
    Scan type : Progressive
    Bits/(Pixel*Frame) : 0.122
    Stream size : 3.08 GiB (93%)
    Language : English
    Default : Yes
    Forced : No
    Color range : Limited
    Color primaries : BT.709
    Transfer characteristics : BT.709
    Matrix coefficients : BT.709

    Audio
    ID : 2
    Format : AC-3
    Format/Info : Audio Coding 3
    Format settings, Endianness : Big
    Codec ID : A_AC3
    Duration : 1 h 37 min
    Bit rate mode : Constant
    Bit rate : 256 kb/s
    Channel(s) : 2 channels
    Channel positions : Front: L R
    Sampling rate : 48.0 kHz
    Frame rate : 31.250 FPS (1536 SPF)
    Bit depth : 16 bits
    Compression mode : Lossy
    Delay relative to video : -42 ms
    Stream size : 178 MiB (5%)
    Language : Spanish
    Service kind : Complete Main
    Default : Yes
    Forced : No

    Menu
    00:00:00.000 : en:1
    00:06:26.511 : en:2
    00:12:00.678 : en:3
    00:16:19.645 : en:4
    00:21:18.986 : en:5
    00:25:57.264 : en:6
    00:30:55.020 : en:7
    00:35:32.088 : en:8
    00:38:41.986 : en:9
    00:43:03.330 : en:10
    00:48:35.286 : en:11
    00:53:35.961 : en:12
    00:56:00.438 : en:13
    00:59:13.923 : en:14
    01:05:26.587 : en:15
    01:09:32.666 : en:16
    01:13:24.606 : en:17
    01:19:48.406 : en:18
    01:24:50.916 : en:19
    01:29:55.804 : en:20

    [​IMG]

    [​IMG]

    [​IMG]

    https://paste.fiuxy.com/?28867ed93954288a#6aT17+7D2L7XiM6Iq6jMX/X7F+g7IRiMRbnzPZMNBiw=
     

Comparte esta página

  1. Este sitio usa cookies. Si continuas usando este sitio, estás aceptando el uso de nuestras cookies.
    Cerrar notificación
Top