Acción/Aventura El depredador [2018] [Latino] [TS] [Un link] [UB-1F+]

Tema en 'Películas Gratis' iniciado por EmaMedina, 11 de Octubre de 2018 a las 10:47 AM.

  1. EmaMedina

    EmaMedina Fiuxer Confiable Cuenta verificada

    [​IMG]

    [​IMG]

    Desde los confines del espacio hasta los suburbios de las pequeñas ciudades, la búsqueda llega a la casa de la reinvención por Shane Black de la saga "Predator". Ahora, los cazadores más letales del universo son más fuertes, más inteligentes y más mortales que nunca, y se han mejorado genéticamente con ADN de otras especies. Cuando un niño accidentalmente desencadena su regreso a la Tierra, solo un grupo de ex soldados y una profesora de ciencias podrán evitar, quizá el fin de la raza humana...

    [​IMG]



    [​IMG]

    Título original: The Predator
    Año: 2018
    Duración: 101 min.
    País: Estados Unidos Estados Unidos
    Dirección: Shane Black
    Guion: Shane Black, Fred Dekker (Personaje: Jim Thomas, John Thomas)
    Música: Henry Jackman
    Fotografía: Larry Fong
    Reparto: Boyd Holbrook, Olivia Munn, Trevante Rhodes, Sterling K. Brown, Jacob Tremblay, Jake Busey, Edward James Olmos, Yvonne Strahovski, Thomas Jane, Keegan-Michael Key, Kyle Strauts, Alfie Allen, Niall Matter, Paul Lazenby, Crystal Mudry, Devielle Johnson, Augusto Aguilera, Andrew Jenkins, Dean Redman, Rhys Williams, Steve Wilder
    Productora: 20th Century Fox / Davis Entertainment / TSG Entertainment / Canada Film Capital / Dark Castle Entertainment
    Género: Acción. Aventuras. Ciencia ficción | Extraterrestres. Secuela

    [​IMG]

    General
    Complete name : The.Predator.TSSCR.Latinook.avi
    Format : AVI
    Format/Info : Audio Video Interleave
    Format profile : OpenDML
    File size : 1.61 GiB
    Duration : 1 h 39 min
    Overall bit rate : 2 303 kb/s
    Writing application : Lavf53.32.100
    IsTruncated : Yes

    Video
    ID : 0
    Format : AVC
    Format/Info : Advanced Video Codec
    Format profile : [email protected]
    Format settings : CABAC / 2 Ref Frames
    Format settings, CABAC : Yes
    Format settings, RefFrames : 2 frames
    Codec ID : H264
    Duration : 1 h 39 min
    Bit rate : 2 100 kb/s
    Width : 720 pixels
    Height : 314 pixels
    Display aspect ratio : 2.25:1
    Frame rate : 23.976 (24000/1001) FPS
    Color space : YUV
    Chroma subsampling : 4:2:0
    Bit depth : 8 bits
    Scan type : Progressive
    Bits/(Pixel*Frame) : 0.387
    Stream size : 1.47 GiB (91%)
    Writing library : x264 core
    Color range : Limited
    Color primaries : BT.601 NTSC
    Transfer characteristics : BT.709
    Matrix coefficients : BT.601

    Audio
    ID : 1
    Format : AC-3
    Format/Info : Audio Coding 3
    Format settings, Endianness : Big
    Codec ID : 2000
    Duration : 1 h 39 min
    Bit rate mode : Constant
    Bit rate : 192 kb/s
    Channel(s) : 2 channels
    Channel positions : Front: L R
    Sampling rate : 48.0 kHz
    Frame rate : 31.250 FPS (1536 SPF)
    Bit depth : 16 bits
    Compression mode : Lossy
    Stream size : 137 MiB (8%)
    Alignment : Aligned on interleaves
    Interleave, duration : 32 ms (0.77 video frame)
    Service kind : Complete Main

    [​IMG]

    [​IMG]

    [​IMG]

    Un link sin comprimir

    Uptobox: http://ouo.io/lKvPMC
    1fichier: http://ouo.io/p36SHt

    Ver Online

    https://openload.co/f/-mP9ygEHkW4

     

Comparte esta página

  1. Este sitio usa cookies. Si continuas usando este sitio, estás aceptando el uso de nuestras cookies.
    Cerrar notificación
Top