Bienvenido! Invitado

Al registrarse con nosotros, podrá conversar, compartir ideas, materiales etc... Además de disfrutar contenido genuino, enviar mensajes privados y chatear con otros miembros de nuestra comunidad. Ánimate y forma parte de la red de [email protected]

Terror/Miedo Legado del Diablo [2018] [Latino] [BRScr] [Un link] [UB-1F+]

Tema en 'Películas Gratis' iniciado por EmaMedina, 11 de Octubre de 2018.

  1. EmaMedina

    EmaMedina Fiuxer Confiable Cuenta verificada

    [​IMG]

    [​IMG]

    Cosas extrañas comienzan a suceder en casa de los Graham tras la muerte de la abuela y matriarca, que deja en herencia su casa a su hija Annie. Annie Graham, una galerista casada y con dos hijos, no tuvo una infancia demasiado feliz junto a su madre, y cree que la muerte de ésta puede hacer que pase página. Pero todo se complica cuando su hija menor comienza a ver figuras fantasmales, que también empiezan a aparecer ante su hermano.

    [​IMG]



    [​IMG]

    Título original: Hereditary
    Año: 2018
    Duración: 126 min.
    País: Estados Unidos Estados Unidos
    Dirección: Ari Aster
    Guion: Ari Aster
    Música: Colin Stetson
    Fotografía: Pawel Pogorzelski
    Reparto: Toni Collette, Gabriel Byrne, Alex Wolff, Milly Shapiro, Ann Dowd
    Productora: PalmStar Entertainment / Windy Hill Pictures. Distribuida por A24
    Género: Terror | Casas encantadas. Fantasmas. Sobrenatural. Cine independiente USA. Sectas

    [​IMG]

    General
    Complete name : Hereditary.BRS.Castellano.avi
    Format : AVI
    Format/Info : Audio Video Interleave
    File size : 1.89 GiB
    Duration : 2 h 7 min
    Overall bit rate : 2 127 kb/s
    Writing application : VirtualDubMod 1.5.10.2 (build 2542/release)
    Writing library : VirtualDubMod build 2542/release

    Video
    ID : 0
    Format : MPEG-4 Visual
    Format profile : Advanced [email protected]
    Format settings : BVOP1
    Format settings, BVOP : 1
    Format settings, QPel : No
    Format settings, GMC : No warppoints
    Format settings, Matrix : Default (MPEG)
    Codec ID : XVID
    Codec ID/Hint : XviD
    Duration : 2 h 7 min
    Bit rate : 1 797 kb/s
    Width : 720 pixels
    Height : 360 pixels
    Display aspect ratio : 2.000
    Frame rate : 23.976 (24000/1001) FPS
    Color space : YUV
    Chroma subsampling : 4:2:0
    Bit depth : 8 bits
    Scan type : Progressive
    Compression mode : Lossy
    Bits/(Pixel*Frame) : 0.289
    Stream size : 1.60 GiB (85%)
    Writing library : XviD 67

    Audio
    ID : 1
    Format : MPEG Audio
    Format version : Version 1
    Format profile : Layer 3
    Format settings : Joint stereo / MS Stereo
    Mode : Joint stereo
    Mode extension : MS Stereo
    Codec ID : 55
    Codec ID/Hint : MP3
    Duration : 2 h 7 min
    Bit rate mode : Constant
    Bit rate : 320 kb/s
    Channel(s) : 2 channels
    Sampling rate : 48.0 kHz
    Compression mode : Lossy
    Stream size : 292 MiB (15%)
    Alignment : Aligned on interleaves
    Interleave, duration : 42 ms (1.00 video frame)
    Interleave, preload duratio : 504 ms
    Writing library : LAME3.100Í

    [​IMG]

    [​IMG]

    [​IMG]


    Un link sin comprimir

    Uptobox: http://ouo.io/Lk7Awn
    1fichier: http://ouo.io/uhQUxI

    Ver online

    https://openload.co/f/EoLb49t7NGo
     
    Última modificación por un moderador: 11 de Octubre de 2018

Comparte esta página

Síguenos

  1. Este sitio usa cookies. Si continuas usando este sitio, estás aceptando el uso de nuestras cookies.
    Cerrar notificación
Top